<?xml version="1.0" standalone="no"?>
<!DOCTYPE svg PUBLIC "-//W3C//DTD SVG 1.1//EN" "http://www.w3.org/Graphics/SVG/1.1/DTD/svg11.dtd">
<svg xmlns="http://www.w3.org/2000/svg">
<defs >
<font id="Grenze" horiz-adv-x="451" ><font-face
    font-family="Grenze Light"
    units-per-em="1000"
    panose-1="2 14 4 4 6 4 3 5 4 4"
    ascent="1100"
    descent="-380"
    alphabetic="0" />
<glyph unicode=" " glyph-name="space" horiz-adv-x="170" />
<glyph unicode="!" glyph-name="exclam" horiz-adv-x="246" d="M109 158T105 162T100 168L87 605Q137 615 143 615Q147 613 153 608T159 601L145 162Q123 158 111 158Q109 158 105 162ZM97 -5T92 2T86 13L91 94H153L160 1Q120 -5 100 -5Q97 -5 92 2Z" />
<glyph unicode="&quot;" glyph-name="quotedbl" horiz-adv-x="283" d="M39 676Q72 683 91 683Q95 683 102 676T109 665Q104 614 89 492L55 491L39 676ZM174 676Q207 683 226 683Q230 683 237 676T244 665Q238 590 224 492L190 491L174 676Z" />
<glyph unicode="#" glyph-name="numbersign" horiz-adv-x="554" d="M385 309L365 179H481L473 127H357L337 -6H296L316 127H196L176 -6H135L155 127H38L45 179H163L183 309H68L76 360H190L210 491H251L231 360H351L371 491H412L392 360H511L503 309H385ZM344 309H224L204
179H324L344 309Z" />
<glyph unicode="$" glyph-name="dollar" horiz-adv-x="475" d="M269 297Q339 262 377 232T416 159Q416 127 411 107Q400 81 375 54T320 8T268 -10H259V-103H214V-8Q126 -4 69 2L72 143H114L126 55Q159 48 204 44T280 40Q294 40 308 56T333 96T343 138Q343 159
327 176T285 208T200 252Q133 284 102 316T70 390Q70 417 75 438Q86 461 111 488T166 535T215 555H217V655H262V553Q329 550 388 542L379 401H338L330 492Q233 509 198 509Q187 509 172 497T146 466T135 424Q135 397 147 379T178 347T237 313L269 297Z" />
<glyph unicode="%" glyph-name="percent" horiz-adv-x="864" d="M558 611H607L308 -9H258L558 611ZM153 290T121 327T89 439Q90 502 122 544T225 587Q295 587 327 550T359 438Q359 376 326 333T223 290Q153 290 121 327ZM249 326T284 350Q296 385 296 438Q296
498 284 524T236 550Q196 550 163 526Q151 492 151 440Q151 380 163 353T211 326Q249 326 284 350ZM569 3T537 40T505 149Q505 213 537 256T641 300Q711 300 743 263T775 152Q774 89 741 46T638 3Q569 3 537 40ZM667 41T700 65Q712 104 712 152Q712 212 699 238T651
264Q611 264 579 240Q567 206 567 154Q567 94 579 68T627 41Q667 41 700 65Z" />
<glyph unicode="&amp;" glyph-name="ampersand" horiz-adv-x="583" d="M564 35V0H477Q460 10 374 101L343 50Q329 34 282 13T212 -9Q139 -9 87 30T34 154Q34 211 68 261T155 347L154 349Q100 411 100 478Q100 509 108 526Q119 545 162 578T218 611Q280 611 315
591T350 530Q350 501 340 433H302L298 517Q297 544 274 555T222 567Q212 567 200 565Q179 557 167 540T155 499Q155 472 165 447T198 392Q271 303 375 193Q410 252 436 306L365 323V353H541V318L499 309Q463 251 408 158Q441 122 514 47L564 35ZM290 54T342 137Q250
239 180 320Q142 288 123 248T104 162Q104 100 136 70T219 39Q251 39 273 48Q290 54 342 137Z" />
<glyph unicode="&apos;" glyph-name="quotesingle" horiz-adv-x="148" d="M39 676Q72 683 91 683Q95 683 102 676T109 665Q104 614 89 492L55 491L39 676Z" />
<glyph unicode="(" glyph-name="parenleft" horiz-adv-x="236" d="M121 -43T81 57T40 283Q40 410 80 510T178 680L202 660Q157 588 131 488T105 284Q105 180 131 80T202 -92L178 -112Q121 -43 81 57Z" />
<glyph unicode=")" glyph-name="parenright" horiz-adv-x="236" d="M34 -92Q79 -21 105 79T131 283Q131 388 105 488T34 660L58 680Q115 610 155 510T196 285Q196 158 156 58T58 -112L34 -92Z" />
<glyph unicode="*" glyph-name="asterisk" horiz-adv-x="315" d="M138 402L150 506L66 444L49 447L31 485L135 532L32 578L49 617L66 620L150 558L138 673L181 676L192 664L180 558L263 620L279 617L298 578L194 532L298 485L280 447L264 444L180 507L191 393L149
389L138 402Z" />
<glyph unicode="+" glyph-name="plus" horiz-adv-x="630" d="M526 231H341V33H285V231H104V277H285V474H341V277H526V231Z" />
<glyph unicode="," glyph-name="comma" horiz-adv-x="206" d="M55 -102Q65 -80 76 -51T93 -4Q75 7 75 13L77 93Q115 99 131 99Q135 99 143 91T152 77V28Q152 8 131 -35T83 -116L55 -102Z" />
<glyph unicode="-" glyph-name="hyphen" horiz-adv-x="328" d="M44 269H284V219H44V269Z" />
<glyph unicode="." glyph-name="period" horiz-adv-x="179" d="M72 -10T62 0T51 15L50 93Q64 97 80 99T104 102Q108 102 119 92T130 77L124 0Q84 -10 77 -10Q72 -10 62 0Z" />
<glyph unicode="/" glyph-name="slash" horiz-adv-x="351" d="M254 687H302L97 -118H49L254 687Z" />
<glyph unicode="0" glyph-name="zero" horiz-adv-x="473" d="M143 -9T96 53T49 232Q49 292 67 346T128 436T236 472Q330 472 377 410T424 232Q424 171 406 117T346 27T238 -9Q143 -9 96 53ZM273 35T315 62Q332 89 340 129T348 233Q348 336 323 382T247 428Q224
428 200 420T159 401Q125 349 125 233Q125 129 150 82T226 35Q273 35 315 62Z" />
<glyph unicode="1" glyph-name="one" horiz-adv-x="333" d="M55 31L148 46V408L50 397V432L183 472L216 460V46L298 31V0H55V31Z" />
<glyph unicode="2" glyph-name="two" horiz-adv-x="424" d="M42 41L223 262Q250 295 260 318T270 365Q270 389 260 407T234 426Q224 426 186 420T124 408L115 328H77L72 452Q104 458 160 465T235 472Q283 472 314 448T346 376Q346 346 330 311T287 243L136 62V57H324L332
135H371L373 0H49L42 41Z" />
<glyph unicode="3" glyph-name="three" horiz-adv-x="376" d="M58 -45Q138 -25 197 19T257 125Q257 161 240 182T196 204H108V238Q178 256 207 285T237 366Q237 393 225 409T202 426Q192 426 154 420T92 408L83 334H45L40 452Q72 458 119 465T183 472Q238 472
270 447T303 373Q303 331 274 296T214 247V243Q273 235 301 208T329 131Q329 84 290 38T188 -43T58 -88V-45Z" />
<glyph unicode="4" glyph-name="four" horiz-adv-x="455" d="M276 51H32L27 88Q71 179 122 292T199 473L258 448V432Q234 380 182 275T98 110L99 104H276V252L326 270L341 265V104H415V51H341V-86H276V51Z" />
<glyph unicode="5" glyph-name="five" horiz-adv-x="375" d="M57 -45Q148 -22 202 17T256 134Q256 186 233 209T174 232Q165 232 110 213Q93 207 65 198L51 217L73 461H253L257 507H294L299 404H120L107 252Q112 254 144 267T186 281Q257 281 292 242T327 147Q327
82 289 32T189 -48T57 -88V-45Z" />
<glyph unicode="6" glyph-name="six" horiz-adv-x="430" d="M151 -9T101 46T50 208Q50 305 86 377T185 492T331 547V504Q246 484 190 428T123 287L127 285Q158 299 189 312T226 325Q309 325 344 283T380 171Q380 148 374 118T360 72Q340 45 300 18T234 -9Q151
-9 101 46ZM271 36T290 67T309 170Q309 231 287 254T220 277Q215 277 182 267T122 247Q121 231 121 201Q121 118 147 78T245 36Q271 36 290 67Z" />
<glyph unicode="7" glyph-name="seven" horiz-adv-x="393" d="M121 -92T103 -84T69 -67L295 395L294 404H89L81 324H43L37 461H358L367 427L142 -85Q133 -92 126 -92Q121 -92 103 -84Z" />
<glyph unicode="8" glyph-name="eight" horiz-adv-x="427" d="M163 -10T125 13T69 70T51 141Q51 224 141 287V290Q107 313 88 341T69 409Q69 439 76 456Q85 472 111 494T165 532T212 549Q280 549 319 514T358 424Q358 380 337 343T283 279V275Q326 249 349 218T373
142Q373 117 363 85Q356 71 329 48T272 8T221 -10Q163 -10 125 13ZM267 317T280 346T293 409Q293 453 272 478T193 504Q182 504 169 496T146 471T136 432Q136 397 151 373T186 335T249 297Q267 317 280 346ZM250 36T266 48T294 81T306 130Q306 160 291 182T254
220T194 257L174 268Q149 248 133 216T116 150Q116 100 145 68T239 36Q250 36 266 48Z" />
<glyph unicode="9" glyph-name="nine" horiz-adv-x="430" d="M97 -45Q190 -23 244 36T308 176L305 178Q279 165 249 151T212 137Q129 137 90 182T51 297Q51 322 56 348T71 390Q91 416 132 443T197 471Q280 471 330 416T381 254Q381 156 345 84T244 -32T97 -88V-45ZM225
185T309 215Q311 247 311 261Q311 341 283 383T186 426Q159 426 141 396T122 305Q122 239 146 212T217 185Q225 185 309 215Z" />
<glyph unicode=":" glyph-name="colon" horiz-adv-x="180" d="M72 -10T62 0T51 15L50 93Q64 97 80 99T104 102Q108 102 119 92T130 77L124 0Q84 -10 77 -10Q72 -10 62 0ZM72 351T62 361T51 376L50 454Q64 458 80 460T104 463Q108 463 119 453T130 438L124 361Q84
351 77 351Q72 351 62 361Z" />
<glyph unicode=";" glyph-name="semicolon" horiz-adv-x="192" d="M82 351T72 361T61 376L60 454Q74 458 90 460T114 463Q118 463 129 453T140 438L134 361Q94 351 87 351Q82 351 72 361ZM304 -102Q314 -80 325 -51T342 -4Q324 7 324 13L326 93Q364 99 380 99Q384
99 392 91T401 77V28Q401 8 380 -35T332 -116L304 -102Z" />
<glyph unicode="&lt;" glyph-name="less" horiz-adv-x="580" d="M89 204V272L491 451V394L127 238L491 81V25L89 204Z" />
<glyph unicode="=" glyph-name="equal" horiz-adv-x="604" d="M104 350H500V303H104V350ZM104 185H500V138H104V185Z" />
<glyph unicode="&gt;" glyph-name="greater" horiz-adv-x="580" d="M89 81L453 238L89 394V451L491 272V204L89 25V81Z" />
<glyph unicode="?" glyph-name="question" horiz-adv-x="397" d="M292 606T323 580T354 490Q354 449 337 416T299 362T233 299Q211 280 201 264T186 224T179 159Q157 155 145 155Q143 155 139 159T134 165L132 230Q131 253 141 273T164 307T207 348Q252 388 272
420T293 490Q293 518 281 539T244 560Q212 560 127 547L120 445H80L69 594Q183 606 223 606Q292 606 323 580ZM179 92L187 -4Q157 -9 135 -9Q133 -9 127 -1T121 9L135 92H179Z" />
<glyph unicode="@" glyph-name="at" horiz-adv-x="775" d="M247 -165T182 -122T78 4T40 204Q40 331 82 428T206 581T405 637Q576 637 656 556T736 330Q736 264 719 196T680 76T643 6Q606 1 561 -3T497 -9Q494 -9 481 2T468 18L469 65L449 50Q375 -9 368 -9Q296
-9 253 47T210 200Q210 248 218 290T239 358Q252 378 279 400T335 438T374 454Q391 454 534 433V47L613 40Q637 101 653 173T670 311Q670 450 605 519T407 589Q351 589 296 572T195 523Q173 501 153 450T119 335T106 210Q106 54 164 -32T371 -119Q407 -119 454
-114L459 -147Q385 -165 328 -165Q247 -165 182 -122ZM377 47T416 70T466 102V391Q431 399 398 404T355 407Q341 404 324 386T294 325T281 213Q281 127 308 87T370 47Q377 47 416 70Z" />
<glyph unicode="A" glyph-name="A" horiz-adv-x="561" d="M12 30L72 46L234 596Q256 600 280 603T316 607Q320 607 331 599L494 46L555 30V0H356V34L421 50L376 206H181L139 50L206 34V0H12V30ZM364 249L284 540H273L193 249H364Z" />
<glyph unicode="B" glyph-name="B" horiz-adv-x="500" d="M44 30L104 46V553L44 568V599H275Q352 599 388 565T425 447Q425 389 399 361T339 315V310Q398 299 431 263T465 170Q465 76 416 38T285 0H44V30ZM259 324Q304 324 328 348T352 436Q352 501 338 530T286
559L174 551V324H259ZM351 38T371 70T392 178Q392 240 364 259T291 279H174V48L306 40Q351 38 371 70Z" />
<glyph unicode="C" glyph-name="C" horiz-adv-x="447" d="M185 -9T141 23T72 121T47 278Q47 343 55 397T79 487Q97 515 130 543T195 589T243 607Q272 606 318 603T407 596L397 440H356L346 543Q327 547 290 550T235 553Q211 553 180 528Q153 510 137 454T121 308Q121
164 160 105T273 46H345L360 170L399 169V7Q382 3 323 -3T241 -9Q185 -9 141 23Z" />
<glyph unicode="D" glyph-name="D" horiz-adv-x="551" d="M44 30L104 46V553L44 568V599H296Q350 599 397 572T473 481T503 315Q503 155 449 78T296 0H44V30ZM364 40T397 109T430 311Q430 384 415 440T372 527T310 559L174 550V50L310 40Q364 40 397 109Z" />
<glyph unicode="E" glyph-name="E" horiz-adv-x="461" d="M44 30L104 46V553L44 568V599H419L409 443H368L358 558L174 549V336L326 333V294L174 291V51L367 41L381 158H422L425 0H44V30Z" />
<glyph unicode="F" glyph-name="F" horiz-adv-x="429" d="M44 30L104 46V553L44 568V599H404L394 440H353L343 558L174 549V320L316 316V278L174 274V51L264 34V0H44V30Z" />
<glyph unicode="G" glyph-name="G" horiz-adv-x="514" d="M162 -11T105 63T47 278Q47 343 55 397T79 487Q97 515 130 543T195 589T243 607Q261 607 321 603T428 593L418 440H377L367 539Q343 544 299 548T235 553Q211 553 180 528Q153 510 137 454T121 308Q121
160 159 102T264 43L370 55V240L278 253V290H489V258L435 248V43Q418 32 348 12T260 -9Q162 -11 105 63Z" />
<glyph unicode="H" glyph-name="H" horiz-adv-x="593" d="M44 30L104 46V553L44 568V599H238V565L174 549V330H419V549L355 565V599H549V568L489 553V46L549 30V0H355V34L419 50V287H174V50L238 34V0H44V30Z" />
<glyph unicode="I" glyph-name="I" horiz-adv-x="282" d="M44 30L105 46V553L44 568V599H238V565L174 549V50L238 34V0H44V30Z" />
<glyph unicode="J" glyph-name="J" horiz-adv-x="275" d="M45 -120T3 -109L-29 -102V-65Q51 -65 64 -63Q79 -60 91 -24T104 50V553L42 568V599H238V568L174 552V31Q174 0 153 -35T103 -95T58 -120Q45 -120 3 -109Z" />
<glyph unicode="K" glyph-name="K" horiz-adv-x="528" d="M44 30L104 46V553L44 568V599H238V565L174 549V50L238 34V0H44V30ZM354 95Q247 247 215 296V319L377 549L315 565V599H509V568L449 553L279 317Q316 263 382 174T480 46L532 34V0H420L354 95Z" />
<glyph unicode="L" glyph-name="L" horiz-adv-x="438" d="M44 30L104 46V553L44 568V599H248V565L174 549V51L364 41L378 165H419L422 0H44V30Z" />
<glyph unicode="M" glyph-name="M" horiz-adv-x="740" d="M43 30L103 46L122 553L61 568V599H222L368 103H378L522 599H684V568L624 553L643 46L703 30V0H509V34L573 50L561 510H555Q515 368 495 302L415 47Q394 44 372 41T340 37Q336 37 325 45L247 298Q229 354
185 510H179L167 50L232 34V0H43V30Z" />
<glyph unicode="N" glyph-name="N" horiz-adv-x="573" d="M390 -8T379 0L227 352Q209 395 168 507H161L169 79V50L233 34V0H44V30L104 46V553L44 568V599H195L362 214Q376 180 416 61H424L416 519V549L352 565V599H541V568L481 553V3Q458 -1 432 -4T394 -8Q390 -8 379 0Z" />
<glyph unicode="O" glyph-name="O" horiz-adv-x="541" d="M47 -9T47 282Q47 412 79 487Q97 515 130 543T195 589T243 607Q371 607 432 535T494 313Q494 252 485 198T463 105Q447 82 414 55T347 10T296 -9Q47 -9 47 282ZM308 40T346 61T395 100Q405 131 412 183T420
298Q420 426 385 492T261 558Q244 558 222 551T180 530Q153 511 137 454T121 302Q121 199 139 142T195 63T291 40Q308 40 346 61Z" />
<glyph unicode="P" glyph-name="P" horiz-adv-x="489" d="M44 30L104 46V553L44 568V599H293Q368 599 409 560T450 427Q450 328 401 276T273 223H174V50L255 34V0H44V30ZM284 269Q330 269 353 297T377 406Q377 482 358 519T300 556L174 550V269H284Z" />
<glyph unicode="Q" glyph-name="Q" horiz-adv-x="543" d="M498 -68L479 -112H445L262 -8Q47 12 47 282Q47 412 79 487Q97 515 130 543T195 589T243 607Q371 607 432 535T494 313Q494 252 485 198T463 105Q444 78 404 47T328 0L498 -68ZM121 199T139 142T195 63T291
40Q308 40 346 61T395 100Q405 131 412 183T420 298Q420 426 385 492T261 558Q244 558 222 551T180 530Q153 511 137 454T121 302Q121 199 139 142Z" />
<glyph unicode="R" glyph-name="R" horiz-adv-x="518" d="M44 30L104 46V553L44 568V599H283Q361 599 400 563T440 435Q440 366 408 323T319 268V263Q409 106 448 45L502 34V0H391Q377 27 339 97Q284 198 253 260H174V50L238 36V0H44V30ZM275 306Q315 306 341
330T367 422Q367 494 349 525T290 556L174 550V306H275Z" />
<glyph unicode="S" glyph-name="S" horiz-adv-x="428" d="M208 -9T149 -6T48 3L53 163H96L110 56Q210 43 261 43Q270 43 284 57T310 94T321 136Q321 168 306 190T270 227T197 271Q148 300 121 320T74 371T54 443Q54 471 59 492Q71 515 100 542T160 588T209 607Q240
607 371 591L365 436H322L310 537Q283 542 239 547T176 553Q167 553 154 543T131 513T121 468Q121 424 147 396T234 334L252 324Q299 297 326 277T373 228T392 159Q392 133 387 111Q376 85 349 57T290 10T239 -9Q208 -9 149 -6Z" />
<glyph unicode="T" glyph-name="T" horiz-adv-x="459" d="M131 30L194 46V552L74 548L65 428H25L14 599H444L434 428H393L384 548L264 552V50L330 34V0H131V30Z" />
<glyph unicode="U" glyph-name="U" horiz-adv-x="571" d="M165 -9T132 31T98 157V553L37 568V599H231V565L167 549V168Q167 102 184 78T234 53Q256 53 297 64T398 94V549L334 565V599H528V568L467 553V46L528 30V0H415L399 54Q334 26 291 9T234 -9Q165 -9 132 31Z" />
<glyph unicode="V" glyph-name="V" horiz-adv-x="534" d="M230 -8T218 0L74 553L14 568V599H213V565L147 549L230 222L265 66H275L296 150Q376 472 394 549L325 565V599H519V568L459 553L415 382Q390 288 365 188T316 3Q294 -1 269 -4T233 -8Q230 -8 218 0Z" />
<glyph unicode="W" glyph-name="W" horiz-adv-x="787" d="M222 -8T210 0L74 553L14 568V599H203V565L147 549L221 235L259 66H269Q280 111 293 159T318 254Q327 286 340 335T369 446L342 553L290 570V599H482V563L415 549L485 235L523 66H533L650 549L579 565V599H775V568L715
553L630 221L574 3Q551 -1 527 -4T491 -8Q487 -8 476 0L400 328H392L308 3Q285 -1 261 -4T225 -8Q222 -8 210 0Z" />
<glyph unicode="X" glyph-name="X" horiz-adv-x="534" d="M0 30L59 46L225 310L75 553L20 568V599H221V565L154 549L273 361H276L384 549L318 565V599H514V568L453 553L311 319L480 46L539 30V0H332V34L397 50L264 268H261L128 50L195 34V0H0V30Z" />
<glyph unicode="Y" glyph-name="Y" horiz-adv-x="513" d="M161 30L223 46V230L64 553L4 568V599H203V565L140 549L188 448L258 299H266L381 549L315 565V599H509V568L449 553L292 231V47L356 31V0H161V30Z" />
<glyph unicode="Z" glyph-name="Z" horiz-adv-x="465" d="M47 31L320 549L121 558L113 443H71L61 599H408V567L136 51L366 41L377 161H418L426 0H47V31Z" />
<glyph unicode="[" glyph-name="bracketleft" horiz-adv-x="231" d="M64 -104V672L190 678L194 650L122 633V-65L194 -83L190 -110L64 -104Z" />
<glyph unicode="\" glyph-name="backslash" horiz-adv-x="296" d="M20 687H71L277 -118H225L20 687Z" />
<glyph unicode="]" glyph-name="bracketright" horiz-adv-x="231" d="M37 -82L109 -65V633L37 650L41 678L167 672V-104L41 -110L37 -82Z" />
<glyph unicode="^" glyph-name="asciicircum" horiz-adv-x="508" d="M54 276L219 603H288L454 276L415 257L253 570L92 257L54 276Z" />
<glyph unicode="_" glyph-name="underscore" horiz-adv-x="465" d="M29 -72H436V-107H29V-72Z" />
<glyph unicode="`" glyph-name="grave" horiz-adv-x="167" d="M0 611V631L37 668L167 549L149 526L0 611Z" />
<glyph unicode="a" glyph-name="a" horiz-adv-x="442" d="M129 -9T87 48T44 204Q44 253 51 294T71 359Q84 378 112 400T169 438T208 454Q225 454 368 433V44L411 35V5Q339 -9 331 -9Q327 -9 315 2T302 18L303 65L283 50Q209 -9 202 -9Q129 -9 87 48ZM215 47T300
102V391Q238 408 199 408Q189 408 181 406Q145 393 130 349T115 211Q115 153 128 116T162 63T203 47Q215 47 300 102Z" />
<glyph unicode="b" glyph-name="b" horiz-adv-x="443" d="M222 -9T163 -2T74 11V589L31 598V628Q101 642 113 642Q117 642 129 631T142 615L139 384L143 383Q162 397 179 411Q234 454 240 454Q312 454 355 398T398 245Q398 194 391 153T371 86Q358 67 330 45T273
7T234 -9Q222 -9 163 -2ZM297 52T312 96T327 234Q327 291 314 328T280 381T239 398Q230 398 142 343V54Q166 48 195 43T244 37Q254 37 262 39Q297 52 312 96Z" />
<glyph unicode="c" glyph-name="c" horiz-adv-x="336" d="M128 -9T86 45T44 200Q44 251 51 293T71 359Q84 379 112 401T169 438T208 454Q227 454 255 450T308 439L306 318H260L249 393Q214 406 190 406Q184 406 175 402T158 391Q138 375 127 329T115 211Q115 125
142 86T210 46L309 47V14Q282 7 243 -1T193 -9Q128 -9 86 45Z" />
<glyph unicode="d" glyph-name="d" horiz-adv-x="446" d="M130 -9T87 47T44 200Q44 252 51 293T71 359Q84 378 112 400T169 438T208 454Q217 454 277 446L303 443V590L260 599V628Q334 643 343 643Q347 643 359 632T372 616L368 428V44L411 35V5Q339 -9 331 -9Q327
-9 315 2T302 18V64L269 39Q209 -9 202 -9Q130 -9 87 47ZM210 47T249 69T300 102V390Q276 397 247 402T198 408Q189 408 181 406Q145 393 130 349T115 211Q115 153 128 116T162 63T203 47Q210 47 249 69Z" />
<glyph unicode="e" glyph-name="e" horiz-adv-x="397" d="M135 -9T90 46T44 204Q44 253 51 294T71 359Q84 379 113 402T170 441T211 457Q262 457 294 439T345 373T363 240L115 218Q115 124 147 85T225 45L304 49L347 52V19Q312 9 268 0T207 -9Q135 -9 90 46ZM290
273Q289 340 270 375T207 410Q187 410 159 393Q141 381 130 343T117 253L290 273Z" />
<glyph unicode="f" glyph-name="f" horiz-adv-x="235" d="M94 -9T82 2T69 18V402H21V434L69 449V499Q69 523 87 557T131 617T173 643Q193 643 219 641T265 637Q270 633 276 625T282 613Q282 611 275 596T266 575Q247 580 211 586T162 593Q155 593 146 572T137
522V445H232V402H137V47L190 37V5Q106 -9 97 -9Q94 -9 82 2Z" />
<glyph unicode="g" glyph-name="g" horiz-adv-x="413" d="M199 -179T134 -169T32 -149L39 -92L170 29Q135 30 107 54T62 122T45 223Q45 261 51 297T69 359Q82 378 110 400T166 438T206 454Q229 454 357 434V-33Q357 -63 337 -97T290 -155T242 -179Q199 -179 134
-169ZM218 67T289 124V392Q233 407 197 407Q183 407 179 405Q153 396 135 351T116 225Q116 139 144 103T209 67Q218 67 289 124ZM267 -141T274 -122T286 -72T291 -8V75L287 77Q221 18 94 -105V-110Q112 -117 171 -129T262 -141Q267 -141 274 -122Z" />
<glyph unicode="h" glyph-name="h" horiz-adv-x="467" d="M101 -9T89 2T76 18V590L33 599V628Q106 643 115 643Q119 643 131 632T144 616L141 382L144 381L174 403Q242 454 245 454Q322 454 356 417T391 284V44L434 35V5Q360 -9 351 -9Q347 -9 335 2T323 18V289Q323
338 311 361T283 391T244 397Q239 397 202 377T144 343V44L187 35V5Q114 -9 105 -9Q101 -9 89 2Z" />
<glyph unicode="i" glyph-name="i" horiz-adv-x="222" d="M104 -9T90 3T76 20V403L33 410V440Q102 454 111 454Q116 454 130 442T144 424V41L187 35V5Q118 -9 109 -9Q104 -9 90 3ZM325 627L384 632L397 614L391 536H332L325 627Z" />
<glyph unicode="j" glyph-name="j" horiz-adv-x="199" d="M71 631L129 635L142 618L136 542H77L71 631ZM25 -179T-46 -157V-126Q-26 -126 6 -124T43 -119Q55 -113 64 -80T73 -11V403L21 409V440Q99 454 108 454Q112 454 126 442T140 424V-33Q140 -63 122 -97T79
-155T38 -179Q25 -179 -46 -157Z" />
<glyph unicode="k" glyph-name="k" horiz-adv-x="439" d="M101 -9T89 2T77 18V590L33 599V628Q107 643 116 643Q120 643 132 632T144 616V44L187 35V5Q114 -9 105 -9Q101 -9 89 2ZM351 -9T338 1T320 17L171 227V255L314 404L260 408V446L379 453Q383 453 389 438T395
415L229 248L381 45L429 35V5Q363 -9 355 -9Q351 -9 338 1Z" />
<glyph unicode="l" glyph-name="l" horiz-adv-x="223" d="M101 -9T89 2T77 18V590L33 599V628Q107 643 116 643Q120 643 132 632T144 616V44L187 35V5Q114 -9 105 -9Q101 -9 89 2Z" />
<glyph unicode="m" glyph-name="m" horiz-adv-x="686" d="M101 -10T89 1T76 17V401L33 410V440Q106 454 115 454Q119 454 131 443T143 427L142 380Q164 400 198 427T236 454Q288 454 321 437T368 380Q392 402 423 428T458 454Q537 454 573 417T610 284V44L653
34V5Q580 -10 572 -10Q567 -10 555 1T542 17V289Q542 338 530 361T502 391T465 397Q455 397 377 343V44L420 34V5Q347 -10 339 -10Q334 -10 322 1T309 17V296Q309 342 298 364T271 391T235 397Q225 397 144 343V44L187 34V5Q114 -10 105 -10Q101 -10 89 1Z" />
<glyph unicode="n" glyph-name="n" horiz-adv-x="467" d="M101 -9T89 2T76 18V401L33 410V440Q106 454 115 454Q119 454 131 443T143 427L142 380Q240 454 245 454Q321 454 356 417T391 284V44L434 35V5Q360 -9 352 -9Q347 -9 335 2T323 18V289Q323 338 311 361T282
391T244 397Q232 397 144 343V44L187 35V5Q114 -9 105 -9Q101 -9 89 2Z" />
<glyph unicode="o" glyph-name="o" horiz-adv-x="448" d="M142 -9T93 44T44 208Q44 254 51 295T71 359Q84 379 113 402T170 441T210 457Q305 457 354 403T404 244Q404 195 396 151T375 81Q358 58 307 25T238 -9Q142 -9 93 44ZM250 37T276 52T308 74Q333 132 333
236Q333 318 301 364T209 411Q185 411 159 393Q115 360 115 216Q115 124 148 81T240 36Q250 37 276 52Z" />
<glyph unicode="p" glyph-name="p" horiz-adv-x="444" d="M97 -179T85 -168T72 -152L76 12V402L33 410V440Q52 445 76 449T113 454Q116 454 129 443T142 427L141 379Q234 454 242 454Q314 454 357 398T400 245Q400 194 393 152T372 86Q359 67 331 45T275 7T236
-9Q214 -9 141 2V-123L187 -133V-165Q167 -169 141 -173T101 -179Q97 -179 85 -168ZM299 52T314 96T329 234Q329 319 302 358T240 398Q233 398 143 342L144 54Q168 48 197 43T246 37Q255 37 263 39Q299 52 314 96Z" />
<glyph unicode="q" glyph-name="q" horiz-adv-x="432" d="M325 -179T313 -168T300 -152L304 62L300 63L264 35Q255 28 231 10T202 -9Q130 -9 87 47T44 200Q44 252 51 293T71 359Q84 378 112 400T169 438T208 454Q220 454 279 447T368 435V-126L411 -135V-164Q338
-179 329 -179Q325 -179 313 -168ZM210 47T249 70T301 103L300 391Q238 408 199 408Q189 408 181 406Q145 393 130 349T115 211Q115 154 128 117T162 64T203 47Q210 47 249 70Z" />
<glyph unicode="r" glyph-name="r" horiz-adv-x="300" d="M101 -9T89 2T76 18V403L33 410V440Q102 454 111 454Q115 454 129 442T144 425L142 380Q166 406 193 432T224 458Q236 458 257 454T289 445Q294 430 294 421Q294 416 286 401T273 382Q245 394 222 394Q216
394 179 367Q164 356 144 343V47L202 37V5Q115 -9 105 -9Q101 -9 89 2Z" />
<glyph unicode="s" glyph-name="s" horiz-adv-x="354" d="M196 -9T136 -5T44 3L45 132L83 133L100 55Q126 49 160 44T211 39Q223 39 239 64T256 110Q256 132 245 147T218 172T156 209Q97 242 73 267T48 331Q48 359 53 374Q67 398 101 426T151 454Q183 454 233
451T309 445L306 332H264L257 393Q245 396 202 401T147 406Q135 406 123 392T110 354Q110 329 126 313T164 285T192 268Q196 265 216 254Q269 222 298 196T327 133Q327 114 321 90Q308 60 273 26T215 -9Q196 -9 136 -5Z" />
<glyph unicode="t" glyph-name="t" horiz-adv-x="274" d="M125 -9T102 16T79 55V402H14V428L78 452L119 522Q125 522 147 511V445H246V399H147V88Q147 62 152 53T170 44L253 42V6Q224 1 187 -4T139 -9Q125 -9 102 16Z" />
<glyph unicode="u" glyph-name="u" horiz-adv-x="461" d="M169 -9T138 6T91 59T75 161V401L32 410V440Q105 454 113 454Q118 454 130 443T143 427V156Q143 107 155 83T183 53T221 47Q231 47 318 101V401L275 410V440Q348 454 357 454Q361 454 373 443T386 427V44L428
35V5Q356 -9 347 -9Q343 -9 331 2T319 18L320 65Q296 45 260 18T220 -9Q169 -9 138 6Z" />
<glyph unicode="v" glyph-name="v" horiz-adv-x="401" d="M171 -11T164 -3L47 402L2 409V441Q71 453 80 453Q85 453 97 444T112 428L184 158L205 70H213L311 403L244 408V445L353 453Q357 453 366 441T376 424L241 2Q180 -11 174 -11Q171 -11 164 -3Z" />
<glyph unicode="w" glyph-name="w" horiz-adv-x="607" d="M167 -11T159 -3L47 402L2 409V441Q71 453 80 453Q85 453 97 444T112 428L181 158L201 70H209L287 325L265 403L222 409V441Q290 453 298 453Q303 453 316 444T330 428L397 158L417 70H425L517 403L445
408V445L559 453Q563 453 573 441T583 424L453 2Q392 -11 386 -11Q383 -11 376 -3L311 240H306L237 2Q175 -11 170 -11Q167 -11 159 -3Z" />
<glyph unicode="x" glyph-name="x" horiz-adv-x="402" d="M25 -9T18 7T11 30L164 229L53 401L16 408V442Q77 453 84 453Q88 453 98 444T110 428L209 273L305 406L248 408V446L361 453Q365 453 371 437T378 415L236 229L355 47L395 37V4Q340 -9 332 -9Q328 -9 317
0T300 17L192 185L86 42L144 37V0L29 -9Q25 -9 18 7Z" />
<glyph unicode="y" glyph-name="y" horiz-adv-x="402" d="M160 -179T151 -165T142 -145L189 -3L170 -6Q168 -6 159 0L49 402L2 409V441Q71 453 80 453Q85 453 98 444T113 428L182 162L204 63H213L311 403L244 408V445L353 453Q357 453 367 441T376 424L240 -2L206
-126L252 -138L251 -167Q172 -179 163 -179Q160 -179 151 -165Z" />
<glyph unicode="z" glyph-name="z" horiz-adv-x="380" d="M53 8T48 19T39 38Q70 89 107 152T161 245Q206 325 244 388L242 396L101 400L93 332H54L47 445H310Q315 438 320 428T330 408Q271 300 181 150L129 61V51L292 47L303 130H341L344 0H59Q53 8 48 19Z" />
<glyph unicode="{" glyph-name="braceleft" horiz-adv-x="276" d="M108 -104V213L37 265V293L108 344V672L234 678L238 650L166 633V331L89 281L166 227V-65L238 -83L234 -110L108 -104Z" />
<glyph unicode="|" glyph-name="bar" horiz-adv-x="196" d="M74 671H122V-194H74V671Z" />
<glyph unicode="}" glyph-name="braceright" horiz-adv-x="276" d="M37 -82L109 -65V227L186 281L109 331V633L37 650L41 678L167 672V344L238 293V265L167 213V-104L41 -110L37 -82Z" />
<glyph unicode="~" glyph-name="asciitilde" horiz-adv-x="546" d="M346 283T317 288T245 305Q187 320 170 320Q155 320 135 305T113 288L89 311Q93 315 110 333T145 363T173 375Q200 375 242 365T293 353Q359 336 379 336Q398 336 432 370L457 347Q399 283 372
283Q346 283 317 288Z" />
<glyph unicode="&#xa0;" glyph-name="uni00A0" horiz-adv-x="170" />
<glyph unicode="&#xa1;" glyph-name="exclamdown" horiz-adv-x="246" d="M86 438Q119 443 146 443Q148 443 154 436T160 425L154 344H92L86 438ZM101 -177T94 -171T87 -162L100 277Q124 281 135 281Q138 280 142 276T146 271L159 -166L139 -170Q109 -177 103 -177Q101
-177 94 -171Z" />
<glyph unicode="&#xa2;" glyph-name="cent" horiz-adv-x="358" d="M318 55Q279 45 233 36V-52H193V32Q131 36 92 89T53 241Q53 292 60 334T80 400Q94 422 127 446T190 486V577H230V495Q278 491 317 480L315 359H269L258 434Q223 447 199 447Q184 447 167 432Q147
416 136 370T124 252Q124 166 151 127T219 87L318 88V55Z" />
<glyph unicode="&#xa3;" glyph-name="sterling" horiz-adv-x="508" d="M454 0H195Q148 0 76 -12L65 30Q95 38 109 51T127 90T132 170L131 267H62L66 306H131Q131 412 139 462T174 533T260 555Q290 555 348 551T437 542L428 401H387L380 501L353 503Q252 511 244
511Q224 511 215 497T203 451T200 351V306H331L327 267H200Q198 174 192 125T166 54L397 38L410 143H451L454 0Z" />
<glyph unicode="&#xa4;" glyph-name="currency" horiz-adv-x="648" d="M89 176L158 243Q121 293 121 365Q121 434 158 488L89 558L118 589L188 522Q215 547 251 561T329 576Q408 576 465 527L530 589L559 558L494 494Q531 442 531 373Q531 301 488 244L560 175L530
143L459 212Q432 189 397 176T323 162Q241 162 187 210L118 144L89 176ZM396 211T434 255T473 369Q473 437 435 482T326 527Q254 527 216 483T177 369Q177 301 215 256T326 211Q396 211 434 255Z" />
<glyph unicode="&#xa5;" glyph-name="yen" horiz-adv-x="572" d="M184 31L253 46V181H97L102 220H252L218 286H97L102 325H200L98 501L39 516V547H236V510L172 497L287 283H294L401 498L334 511V547H533V516L470 501L368 325H474L469 286H349L321 232V220H474L469
181H321V47L391 32V0H184V31Z" />
<glyph unicode="&#xa6;" glyph-name="brokenbar" horiz-adv-x="196" d="M74 671H122V308H74V671ZM74 184H122V-194H74V184Z" />
<glyph unicode="&#xa7;" glyph-name="section" horiz-adv-x="459" d="M190 -93T89 -84L98 68H136L143 -31Q163 -33 172 -35Q252 -45 282 -45Q291 -45 306 -22T321 19Q321 47 293 73T215 129Q158 162 129 194T99 265Q99 280 104 300Q110 312 130 331T172 364Q136
389 117 415T98 473Q98 488 103 506Q113 524 141 548T198 589T243 607Q251 607 325 599Q345 598 378 594L367 454H331L324 540Q228 558 211 558Q206 558 194 546T171 518T161 490Q161 462 186 439T266 384Q320 352 351 320T383 252Q383 221 376 200Q361 173 323
137Q384 88 384 37Q384 27 382 15T377 -5Q362 -33 324 -63T263 -93Q190 -93 89 -84ZM304 172T312 192T320 229Q320 260 294 283T239 323T203 344Q187 329 174 311T161 277Q161 250 188 227T264 176L293 158Q304 172 312 192Z" />
<glyph unicode="&#xa8;" glyph-name="dieresis" horiz-adv-x="217" d="M0 627L59 632L72 614L66 536H7L0 627ZM144 627L203 632L217 614L210 536H151L144 627Z" />
<glyph unicode="&#xa9;" glyph-name="copyright" horiz-adv-x="813" d="M310 102T237 145T124 264T84 430Q84 521 124 596T237 716T406 760Q503 760 576 717T689 598T729 432Q729 341 689 266T576 146T406 102Q310 102 237 145ZM490 145T551 183T645 286T678 432Q678
512 646 577T552 679T406 717Q323 717 262 679T167 576T134 430Q134 350 166 285T260 183T406 145Q490 145 551 183ZM340 257T306 306T271 438Q271 490 286 541Q302 566 339 593T392 621Q408 621 437 619T493 614L485 505H456L449 574Q388 585 373 585Q364 585
353 568T333 521T325 457Q325 295 409 295L487 303L490 276Q466 270 433 264T392 257Q340 257 306 306Z" />
<glyph unicode="&#xaa;" glyph-name="ordfeminine" horiz-adv-x="385" d="M113 319T77 364T40 488Q40 523 45 554T59 603Q76 627 117 656T172 686Q191 686 308 668V366L345 358V332Q280 319 273 319Q269 319 259 328T248 342V384Q230 368 219 357Q179 319 174
319Q113 319 77 364ZM182 371T207 389T246 418V629L225 635Q215 637 192 643T163 649Q154 649 141 631T117 578T106 498Q106 454 117 426T145 384T177 371Q182 371 207 389Z" />
<glyph unicode="&#xab;" glyph-name="guillemotleft" horiz-adv-x="421" d="M39 220V249L176 407L201 388L108 238V230L199 74L173 54L39 220ZM199 220V249L336 407L362 388L269 238V230L360 74L335 54L199 220Z" />
<glyph unicode="&#xac;" glyph-name="logicalnot" horiz-adv-x="476" d="M442 159H396V269H24V314H442V159Z" />
<glyph unicode="&#xad;" glyph-name="uni00AD" horiz-adv-x="328" d="M44 269H284V219H44V269Z" />
<glyph unicode="&#xae;" glyph-name="registered" horiz-adv-x="645" d="M251 255T194 288T106 379T74 509Q74 581 107 638T197 728T322 761Q394 761 450 728T538 637T570 506Q570 434 537 377T448 287T323 255Q251 255 194 288ZM380 299T425 324T496 397T522
507Q522 568 498 616T428 691T323 718Q265 718 220 693T148 620T122 509Q122 448 146 401T216 326T322 299Q380 299 425 324ZM225 391L251 397V622L224 629V649H335Q375 649 393 629T411 575Q411 541 396 519T360 489V485L406 400L431 394V374H379L326 484H290V399L318
394V374H225V391ZM330 511Q352 511 360 523T369 566Q369 597 364 611T340 625L292 621V511H330Z" />
<glyph unicode="&#xaf;" glyph-name="overscore" horiz-adv-x="260" d="M0 597H260V547H0V597Z" />
<glyph unicode="&#xb0;" glyph-name="degree" horiz-adv-x="309" d="M103 386T74 416T44 493Q44 539 75 572T156 605Q205 605 235 574T266 497Q266 451 234 419T152 386Q103 386 74 416ZM183 427T201 446T219 495Q219 524 201 544T154 564Q125 564 108 544T90
495Q90 466 107 447T154 427Q183 427 201 446Z" />
<glyph unicode="&#xb1;" glyph-name="plusminus" horiz-adv-x="570" d="M255 278H89V325H255V489H311V325H479V278H311V113H255V278ZM481 46V-1H91V46H481Z" />
<glyph unicode="&#xb2;" glyph-name="uni00B2" horiz-adv-x="373" d="M319 363H63L58 387L201 552Q239 594 239 628Q239 647 232 661T212 675Q203 675 170 668Q157 666 145 664T124 661L117 593H87L82 696Q113 702 152 707T207 712Q246 712 272 693T298 634Q298
594 253 541L142 412V408H279L285 479H317L319 363Z" />
<glyph unicode="&#xb3;" glyph-name="uni00B3" horiz-adv-x="370" d="M254 550T274 529T295 473Q295 446 279 418T235 373T177 355Q153 355 87 366L91 394L114 393Q150 391 166 391Q192 391 201 395Q216 403 227 424T239 471Q239 500 230 514T201 529H140V556Q188
566 205 585T223 637Q223 656 216 669T195 683Q182 682 161 680T123 674L114 613H85V708H88Q153 717 186 717Q230 717 253 698T277 642Q277 619 261 598T217 560L218 556Q254 550 274 529Z" />
<glyph unicode="&#xb4;" glyph-name="acute" horiz-adv-x="167" d="M0 549L130 668L167 631V611L18 526L0 549Z" />
<glyph unicode="&#xb5;" glyph-name="uni00B5" horiz-adv-x="498" d="M462 10Q411 -9 397 -9Q375 -9 354 9T324 51Q293 30 262 11T228 -9Q173 -9 135 16V-45Q135 -92 147 -123T177 -168Q184 -174 206 -176T247 -179T273 -180L278 -210Q272 -212 237 -222T188 -232Q173
-232 147 -205T100 -141T79 -74V400L37 411V440L61 444Q110 453 117 453Q121 453 134 442T148 427V140Q148 81 171 65T227 49Q239 49 266 59T320 83V400L277 411V440Q280 440 315 446T358 453Q362 453 375 442T388 427V107Q388 76 393 62T412 42T457 34L462 10Z"
/>
<glyph unicode="&#xb6;" glyph-name="paragraph" horiz-adv-x="645" d="M242 37L323 50V218H248Q161 218 111 270T60 430Q60 599 221 599H378V0H242V37ZM440 599H558V567L495 550V46L556 31V0H440V599Z" />
<glyph unicode="&#xb7;" glyph-name="middot" horiz-adv-x="178" d="M72 265T62 275T51 290L50 368Q64 372 80 374T104 377Q108 377 119 367T130 352L124 275Q84 265 77 265Q72 265 62 275Z" />
<glyph unicode="&#xb8;" glyph-name="cedilla" horiz-adv-x="139" d="M1 -186Q45 -164 61 -153T77 -123Q77 -107 58 -97T9 -84L4 -63L28 11L60 8L54 -49Q88 -54 113 -72T139 -114Q139 -137 128 -157Q105 -178 17 -213L1 -186Z" />
<glyph unicode="&#xb9;" glyph-name="uni00B9" horiz-adv-x="358" d="M300 391V363H87V393L169 405V658L80 647V676L197 713L227 699V403L300 391Z" />
<glyph unicode="&#xba;" glyph-name="ordmasculine" horiz-adv-x="374" d="M120 317T80 361T40 489Q40 524 45 554T59 602Q76 625 119 655T177 686Q254 686 294 641T334 512Q334 481 328 448T313 397Q297 377 252 347T193 317Q120 317 80 361ZM199 359T223 372T252
390Q259 407 263 437T268 504Q268 558 249 597T192 644Q184 646 178 646Q156 646 142 639Q129 630 118 590T106 497Q106 435 128 396T191 357Q199 359 223 372Z" />
<glyph unicode="&#xbb;" glyph-name="guillemotright" horiz-adv-x="421" d="M61 74L152 230V238L59 388L84 407L221 249V220L86 54L61 74ZM222 74L313 230V238L219 388L245 407L382 249V220L248 54L222 74Z" />
<glyph unicode="&#xbc;" glyph-name="onequarter" horiz-adv-x="810" d="M300 540V512H87V542L169 554V807L80 796V825L197 862L227 848V552L300 540ZM738 83H676V0H620V83H476L464 120L584 344H676V128H738V83ZM620 128V297H613L524 134L525 128H620ZM542 611H592L301
-9H251L542 611Z" />
<glyph unicode="&#xbd;" glyph-name="onehalf" horiz-adv-x="800" d="M300 540V512H87V542L169 554V807L80 796V825L197 862L227 848V552L300 540ZM533 611H583L292 -9H242L533 611ZM746 0H490L485 24L628 189Q666 231 666 265Q666 284 659 298T639 312Q630 312
597 305Q584 303 572 301T551 298L544 230H514L509 333Q540 339 579 344T634 349Q673 349 699 330T725 271Q725 231 680 178L569 49V45H706L712 116H744L746 0Z" />
<glyph unicode="&#xbe;" glyph-name="threequarters" horiz-adv-x="754" d="M254 699T274 678T295 622Q295 595 279 567T235 522T177 504Q153 504 87 515L91 543L114 542Q150 540 166 540Q192 540 201 544Q216 552 227 573T239 620Q239 649 230 663T201 678H140V705Q188
715 205 734T223 786Q223 805 216 818T195 832Q182 831 161 829T123 823L114 762H85V857H88Q153 866 186 866Q230 866 253 847T277 791Q277 768 261 747T217 709L218 705Q254 699 274 678ZM682 83H620V0H564V83H420L408 120L528 344H620V128H682V83ZM564 128V297H557L468
134L469 128H564ZM504 611H554L263 -9H213L504 611Z" />
<glyph unicode="&#xbf;" glyph-name="questiondown" horiz-adv-x="402" d="M239 341L231 437Q261 442 282 442Q285 442 291 434T296 424L283 341H239ZM349 -162Q244 -173 194 -173Q125 -173 94 -147T63 -57Q63 -16 80 17T119 71T185 133Q207 153 217 169T231 208T238
274Q260 278 273 278Q276 277 280 273T284 268L286 203Q287 170 269 146T210 85Q166 45 146 13T125 -57Q125 -86 137 -106T174 -127Q206 -127 291 -114L297 -13H337L349 -162Z" />
<glyph unicode="&#xc0;" glyph-name="Agrave" horiz-adv-x="561" d="M12 30L72 46L234 596Q256 600 280 603T316 607Q320 607 331 599L494 46L555 30V0H356V34L421 50L376 206H181L139 50L206 34V0H12V30ZM364 249L284 540H273L193 249H364ZM185 711L182 732L212
776L365 692L353 664L185 711Z" />
<glyph unicode="&#xc1;" glyph-name="Aacute" horiz-adv-x="561" d="M12 30L72 46L234 596Q256 600 280 603T316 607Q320 607 331 599L494 46L555 30V0H356V34L421 50L376 206H181L139 50L206 34V0H12V30ZM364 249L284 540H273L193 249H364ZM195 690L350 773L381
728L377 707L206 662L195 690Z" />
<glyph unicode="&#xc2;" glyph-name="Acircumflex" horiz-adv-x="561" d="M12 30L72 46L234 596Q256 600 280 603T316 607Q320 607 331 599L494 46L555 30V0H356V34L421 50L376 206H181L139 50L206 34V0H12V30ZM364 249L284 540H273L193 249H364ZM161 677L257
776H306L401 677L380 652L286 721H276L182 652L161 677Z" />
<glyph unicode="&#xc3;" glyph-name="Atilde" horiz-adv-x="561" d="M12 30L72 46L234 596Q256 600 280 603T316 607Q320 607 331 599L494 46L555 30V0H356V34L421 50L376 206H181L139 50L206 34V0H12V30ZM364 249L284 540H273L193 249H364ZM331 665T312 670T264
685Q231 698 219 698Q206 698 166 668L142 689Q160 712 182 732T219 753Q244 753 301 732Q342 717 353 717Q369 717 402 750L427 727Q413 708 388 687T349 665Q331 665 312 670Z" />
<glyph unicode="&#xc4;" glyph-name="Adieresis" horiz-adv-x="561" d="M12 30L72 46L234 596Q256 600 280 603T316 607Q320 607 331 599L494 46L555 30V0H356V34L421 50L376 206H181L139 50L206 34V0H12V30ZM364 249L284 540H273L193 249H364ZM171 751L230 755L243
737L237 660H178L171 751ZM320 751L380 755L393 737L387 660H327L320 751Z" />
<glyph unicode="&#xc5;" glyph-name="Aring" horiz-adv-x="561" d="M12 30L72 46L234 596Q256 600 280 603T316 607Q320 607 331 599L494 46L555 30V0H356V34L421 50L376 206H181L139 50L206 34V0H12V30ZM364 249L284 540H273L193 249H364ZM186 657T186 754Q186
799 211 825T283 852Q380 852 380 755Q380 710 354 684T281 657Q186 657 186 754ZM305 690T324 701Q333 719 333 753Q333 791 321 805T283 819Q260 819 242 807Q233 791 233 756Q233 717 244 704T281 690Q305 690 324 701Z" />
<glyph unicode="&#xc6;" glyph-name="AE" horiz-adv-x="752" d="M13 30L73 46L322 552L262 567V599H703L692 443H651L642 558L467 549V333L624 330V291L467 288V51L660 41L674 158H715L718 0H337V30L397 46V206H217L142 50L207 33V0H13V30ZM397 250V549H379L231 250H397Z" />
<glyph unicode="&#xc7;" glyph-name="Ccedilla" horiz-adv-x="447" d="M360 170L399 169V7Q386 3 347 -1T271 -8L267 -49Q301 -54 326 -72T352 -114Q352 -137 341 -157Q317 -179 230 -213L214 -186Q258 -164 274 -153T290 -123Q290 -107 271 -97T222 -84L217 -63L235
-9Q181 -7 139 26T72 124T47 278Q47 343 55 397T79 487Q97 515 130 543T195 589T243 607Q272 606 318 603T407 596L397 440H356L346 543Q327 547 290 550T235 553Q211 553 180 528Q153 510 137 454T121 308Q121 164 160 105T273 46H345L360 170Z" />
<glyph unicode="&#xc8;" glyph-name="Egrave" horiz-adv-x="461" d="M44 30L104 46V553L44 568V599H419L409 443H368L358 558L174 549V336L326 333V294L174 291V51L367 41L381 158H422L425 0H44V30ZM149 711L146 732L176 776L329 692L317 664L149 711Z" />
<glyph unicode="&#xc9;" glyph-name="Eacute" horiz-adv-x="461" d="M44 30L104 46V553L44 568V599H419L409 443H368L358 558L174 549V336L326 333V294L174 291V51L367 41L381 158H422L425 0H44V30ZM160 690L315 773L346 728L342 707L171 662L160 690Z" />
<glyph unicode="&#xca;" glyph-name="Ecircumflex" horiz-adv-x="461" d="M44 30L104 46V553L44 568V599H419L409 443H368L358 558L174 549V336L326 333V294L174 291V51L367 41L381 158H422L425 0H44V30ZM125 677L221 776H270L365 677L344 652L250 721H240L146
652L125 677Z" />
<glyph unicode="&#xcb;" glyph-name="Edieresis" horiz-adv-x="461" d="M44 30L104 46V553L44 568V599H419L409 443H368L358 558L174 549V336L326 333V294L174 291V51L367 41L381 158H422L425 0H44V30ZM135 751L194 755L207 737L201 660H142L135 751ZM284 751L344
755L357 737L351 660H291L284 751Z" />
<glyph unicode="&#xcc;" glyph-name="Igrave" horiz-adv-x="282" d="M44 30L105 46V553L44 568V599H238V565L174 549V50L238 34V0H44V30ZM45 711L42 732L72 776L225 692L213 664L45 711Z" />
<glyph unicode="&#xcd;" glyph-name="Iacute" horiz-adv-x="282" d="M44 30L105 46V553L44 568V599H238V565L174 549V50L238 34V0H44V30ZM56 690L211 773L242 728L238 707L67 662L56 690Z" />
<glyph unicode="&#xce;" glyph-name="Icircumflex" horiz-adv-x="282" d="M44 30L105 46V553L44 568V599H238V565L174 549V50L238 34V0H44V30ZM21 677L117 776H166L261 677L240 652L146 721H136L42 652L21 677Z" />
<glyph unicode="&#xcf;" glyph-name="Idieresis" horiz-adv-x="282" d="M44 30L105 46V553L44 568V599H238V565L174 549V50L238 34V0H44V30ZM31 751L90 755L103 737L97 660H38L31 751ZM180 751L240 755L253 737L247 660H187L180 751Z" />
<glyph unicode="&#xd0;" glyph-name="Eth" horiz-adv-x="551" d="M350 599T397 572T473 481T503 315Q503 155 449 78T296 0H44V30L104 46V289H41V327H104V553L44 568V599H296Q350 599 397 572ZM364 40T397 109T430 311Q430 384 415 440T372 527T310 559L174 550V327H269V289H174V50L310
40Q364 40 397 109Z" />
<glyph unicode="&#xd1;" glyph-name="Ntilde" horiz-adv-x="573" d="M390 -8T379 0L227 352Q209 395 168 507H161L169 79V50L233 34V0H44V30L104 46V553L44 568V599H195L362 214Q376 180 416 61H424L416 519V549L352 565V599H541V568L481 553V3Q458 -1 432 -4T394
-8Q390 -8 379 0ZM338 665T319 670T271 685Q238 698 226 698Q213 698 173 668L149 689Q167 712 189 732T226 753Q251 753 308 732Q349 717 360 717Q376 717 409 750L434 727Q420 708 395 687T356 665Q338 665 319 670Z" />
<glyph unicode="&#xd2;" glyph-name="Ograve" horiz-adv-x="541" d="M47 -9T47 282Q47 412 79 487Q97 515 130 543T195 589T243 607Q371 607 432 535T494 313Q494 252 485 198T463 105Q447 82 414 55T347 10T296 -9Q47 -9 47 282ZM308 40T346 61T395 100Q405 131
412 183T420 298Q420 426 385 492T261 558Q244 558 222 551T180 530Q153 511 137 454T121 302Q121 199 139 142T195 63T291 40Q308 40 346 61ZM174 711L171 732L201 776L354 692L342 664L174 711Z" />
<glyph unicode="&#xd3;" glyph-name="Oacute" horiz-adv-x="541" d="M47 -9T47 282Q47 412 79 487Q97 515 130 543T195 589T243 607Q371 607 432 535T494 313Q494 252 485 198T463 105Q447 82 414 55T347 10T296 -9Q47 -9 47 282ZM308 40T346 61T395 100Q405 131
412 183T420 298Q420 426 385 492T261 558Q244 558 222 551T180 530Q153 511 137 454T121 302Q121 199 139 142T195 63T291 40Q308 40 346 61ZM184 690L339 773L370 728L366 707L195 662L184 690Z" />
<glyph unicode="&#xd4;" glyph-name="Ocircumflex" horiz-adv-x="541" d="M47 -9T47 282Q47 412 79 487Q97 515 130 543T195 589T243 607Q371 607 432 535T494 313Q494 252 485 198T463 105Q447 82 414 55T347 10T296 -9Q47 -9 47 282ZM308 40T346 61T395 100Q405
131 412 183T420 298Q420 426 385 492T261 558Q244 558 222 551T180 530Q153 511 137 454T121 302Q121 199 139 142T195 63T291 40Q308 40 346 61ZM150 677L246 776H295L390 677L369 652L275 721H265L171 652L150 677Z" />
<glyph unicode="&#xd5;" glyph-name="Otilde" horiz-adv-x="541" d="M47 -9T47 282Q47 412 79 487Q97 515 130 543T195 589T243 607Q371 607 432 535T494 313Q494 252 485 198T463 105Q447 82 414 55T347 10T296 -9Q47 -9 47 282ZM308 40T346 61T395 100Q405 131
412 183T420 298Q420 426 385 492T261 558Q244 558 222 551T180 530Q153 511 137 454T121 302Q121 199 139 142T195 63T291 40Q308 40 346 61ZM320 665T301 670T253 685Q220 698 208 698Q195 698 155 668L131 689Q149 712 171 732T208 753Q233 753 290 732Q331
717 342 717Q358 717 391 750L416 727Q402 708 377 687T338 665Q320 665 301 670Z" />
<glyph unicode="&#xd6;" glyph-name="Odieresis" horiz-adv-x="541" d="M47 -9T47 282Q47 412 79 487Q97 515 130 543T195 589T243 607Q371 607 432 535T494 313Q494 252 485 198T463 105Q447 82 414 55T347 10T296 -9Q47 -9 47 282ZM308 40T346 61T395 100Q405
131 412 183T420 298Q420 426 385 492T261 558Q244 558 222 551T180 530Q153 511 137 454T121 302Q121 199 139 142T195 63T291 40Q308 40 346 61ZM160 751L219 755L232 737L226 660H167L160 751ZM309 751L369 755L382 737L376 660H316L309 751Z" />
<glyph unicode="&#xd7;" glyph-name="multiply" horiz-adv-x="503" d="M380 70L251 210L121 69L202 207L228 235L203 262L124 404L253 264L382 405L301 265L277 238L301 212L380 70Z" />
<glyph unicode="&#xd8;" glyph-name="Oslash" horiz-adv-x="541" d="M494 482T494 313Q494 252 485 198T463 105Q447 82 414 55T347 10T296 -9Q203 -9 145 32L76 -77L63 -67L120 53Q47 125 47 282Q47 412 79 487Q97 515 130 543T195 589T243 607Q334 607 392 570L452
666L464 653L416 551Q494 482 494 313ZM121 179T150 116L283 397L362 522Q324 558 261 558Q244 558 222 551T180 530Q153 511 137 454T121 302Q121 179 150 116ZM405 131T412 183T420 298Q420 428 386 489L245 190L175 79Q213 40 291 40Q308 40 346 61T395 100Q405
131 412 183Z" />
<glyph unicode="&#xd9;" glyph-name="Ugrave" horiz-adv-x="571" d="M165 -9T132 31T98 157V553L37 568V599H231V565L167 549V168Q167 102 184 78T234 53Q256 53 297 64T398 94V549L334 565V599H528V568L467 553V46L528 30V0H415L399 54Q334 26 291 9T234 -9Q165
-9 132 31ZM185 711L182 732L212 776L365 692L353 664L185 711Z" />
<glyph unicode="&#xda;" glyph-name="Uacute" horiz-adv-x="571" d="M165 -9T132 31T98 157V553L37 568V599H231V565L167 549V168Q167 102 184 78T234 53Q256 53 297 64T398 94V549L334 565V599H528V568L467 553V46L528 30V0H415L399 54Q334 26 291 9T234 -9Q165
-9 132 31ZM195 690L350 773L381 728L377 707L206 662L195 690Z" />
<glyph unicode="&#xdb;" glyph-name="Ucircumflex" horiz-adv-x="571" d="M165 -9T132 31T98 157V553L37 568V599H231V565L167 549V168Q167 102 184 78T234 53Q256 53 297 64T398 94V549L334 565V599H528V568L467 553V46L528 30V0H415L399 54Q334 26 291 9T234
-9Q165 -9 132 31ZM161 677L257 776H306L401 677L380 652L286 721H276L182 652L161 677Z" />
<glyph unicode="&#xdc;" glyph-name="Udieresis" horiz-adv-x="571" d="M165 -9T132 31T98 157V553L37 568V599H231V565L167 549V168Q167 102 184 78T234 53Q256 53 297 64T398 94V549L334 565V599H528V568L467 553V46L528 30V0H415L399 54Q334 26 291 9T234 -9Q165
-9 132 31ZM171 751L230 755L243 737L237 660H178L171 751ZM320 751L380 755L393 737L387 660H327L320 751Z" />
<glyph unicode="&#xdd;" glyph-name="Yacute" horiz-adv-x="513" d="M161 30L223 46V230L64 553L4 568V599H203V565L140 549L188 448L258 299H266L381 549L315 565V599H509V568L449 553L292 231V47L356 31V0H161V30ZM177 690L332 773L363 728L359 707L188 662L177 690Z" />
<glyph unicode="&#xde;" glyph-name="Thorn" horiz-adv-x="467" d="M348 482T389 449T430 327Q430 235 381 188T253 141H174V50L238 34V0H44V30L104 46V553L44 568V599H238V565L174 549V482H272Q348 482 389 449ZM293 187T311 193T343 225T357 306Q357 375 338
407T279 440L174 434V187H264Q293 187 311 193Z" />
<glyph unicode="&#xdf;" glyph-name="germandbls" horiz-adv-x="436" d="M283 329T299 310T348 261Q389 224 410 197T431 137Q431 121 424 93Q409 64 370 28T308 -9Q270 -9 144 3V-36Q144 -65 126 -98T84 -155T44 -179Q29 -179 -47 -156L-43 -126Q-21 -126 11
-124T50 -119Q64 -112 70 -79T77 -9V510Q77 528 96 560T141 617T183 643Q256 643 311 616T367 524Q367 497 356 476T321 424Q302 400 293 384T283 349Q283 329 299 310ZM314 38T327 51T350 82T360 115Q360 141 344 163T294 217Q259 251 241 276T222 333Q222 365
234 388T272 446Q291 469 300 485T310 520Q310 540 296 556T259 577Q185 595 170 592Q164 592 155 573T145 534L144 62Q190 53 240 46T307 38Q314 38 327 51Z" />
<glyph unicode="&#xe0;" glyph-name="agrave" horiz-adv-x="442" d="M129 -9T87 48T44 204Q44 253 51 294T71 359Q84 378 112 400T169 438T208 454Q225 454 368 433V44L411 35V5Q339 -9 331 -9Q327 -9 315 2T302 18L303 65L283 50Q209 -9 202 -9Q129 -9 87 48ZM215
47T300 102V391Q238 408 199 408Q189 408 181 406Q145 393 130 349T115 211Q115 153 128 116T162 63T203 47Q215 47 300 102ZM131 611V631L168 668L298 549L280 526L131 611Z" />
<glyph unicode="&#xe1;" glyph-name="aacute" horiz-adv-x="442" d="M129 -9T87 48T44 204Q44 253 51 294T71 359Q84 378 112 400T169 438T208 454Q225 454 368 433V44L411 35V5Q339 -9 331 -9Q327 -9 315 2T302 18L303 65L283 50Q209 -9 202 -9Q129 -9 87 48ZM215
47T300 102V391Q238 408 199 408Q189 408 181 406Q145 393 130 349T115 211Q115 153 128 116T162 63T203 47Q215 47 300 102ZM158 549L288 668L325 631V611L176 526L158 549Z" />
<glyph unicode="&#xe2;" glyph-name="acircumflex" horiz-adv-x="442" d="M129 -9T87 48T44 204Q44 253 51 294T71 359Q84 378 112 400T169 438T208 454Q225 454 368 433V44L411 35V5Q339 -9 331 -9Q327 -9 315 2T302 18L303 65L283 50Q209 -9 202 -9Q129 -9 87
48ZM215 47T300 102V391Q238 408 199 408Q189 408 181 406Q145 393 130 349T115 211Q115 153 128 116T162 63T203 47Q215 47 300 102ZM106 538L198 667H254L346 538L324 519L230 607H222L128 519L106 538Z" />
<glyph unicode="&#xe3;" glyph-name="atilde" horiz-adv-x="442" d="M129 -9T87 48T44 204Q44 253 51 294T71 359Q84 378 112 400T169 438T208 454Q225 454 368 433V44L411 35V5Q339 -9 331 -9Q327 -9 315 2T302 18L303 65L283 50Q209 -9 202 -9Q129 -9 87 48ZM215
47T300 102V391Q238 408 199 408Q189 408 181 406Q145 393 130 349T115 211Q115 153 128 116T162 63T203 47Q215 47 300 102ZM274 543T255 548T207 563Q174 576 162 576Q153 576 138 566T109 545L85 567Q139 630 162 630Q187 630 244 609Q250 607 268 601T296 595Q305
595 318 604T345 627L370 604Q356 585 331 564T292 543Q274 543 255 548Z" />
<glyph unicode="&#xe4;" glyph-name="adieresis" horiz-adv-x="442" d="M129 -9T87 48T44 204Q44 253 51 294T71 359Q84 378 112 400T169 438T208 454Q225 454 368 433V44L411 35V5Q339 -9 331 -9Q327 -9 315 2T302 18L303 65L283 50Q209 -9 202 -9Q129 -9 87
48ZM215 47T300 102V391Q238 408 199 408Q189 408 181 406Q145 393 130 349T115 211Q115 153 128 116T162 63T203 47Q215 47 300 102ZM118 627L177 632L190 614L184 536H125L118 627ZM262 627L321 632L335 614L328 536H269L262 627Z" />
<glyph unicode="&#xe5;" glyph-name="aring" horiz-adv-x="442" d="M129 -9T87 48T44 204Q44 253 51 294T71 359Q84 378 112 400T169 438T208 454Q225 454 368 433V44L411 35V5Q339 -9 331 -9Q327 -9 315 2T302 18L303 65L283 50Q209 -9 202 -9Q129 -9 87 48ZM215
47T300 102V391Q238 408 199 408Q189 408 181 406Q145 393 130 349T115 211Q115 153 128 116T162 63T203 47Q215 47 300 102ZM131 523T131 619Q131 664 156 690T228 717Q325 717 325 621Q325 576 299 550T226 523Q131 523 131 619ZM250 556T269 567Q278 584 278
619Q278 657 266 670T228 684Q206 684 187 673Q178 657 178 621Q178 583 189 570T226 556Q250 556 269 567Z" />
<glyph unicode="&#xe6;" glyph-name="ae" horiz-adv-x="639" d="M357 124T389 85T467 45L546 49L589 52V19Q554 9 510 0T449 -9Q405 -9 370 12T313 74Q281 48 244 20T202 -9Q129 -9 87 48T44 204Q44 253 51 294T71 359Q84 378 112 400T169 438T208 454Q220 454
333 437Q359 432 391 428Q435 457 453 457Q504 457 536 439T587 373T605 240L357 218Q357 124 389 85ZM531 340T512 376T449 413Q427 413 401 396Q383 385 372 345T359 253L532 273Q531 340 512 376ZM321 370T333 382L297 391Q213 411 191 411Q184 411 181 410Q146
397 131 352T115 211Q115 153 128 116T162 63T203 47Q209 47 242 66T301 102Q286 146 286 204Q286 253 293 294T313 359Q321 370 333 382Z" />
<glyph unicode="&#xe7;" glyph-name="ccedilla" horiz-adv-x="336" d="M261 1T206 -8L202 -49Q236 -54 261 -72T287 -114Q287 -137 276 -157Q253 -178 165 -213L149 -186Q193 -164 209 -153T225 -123Q225 -107 206 -97T157 -84L152 -63L170 -7Q114 3 79 55T44
200Q44 251 51 293T71 359Q84 379 112 401T169 438T208 454Q227 454 255 450T308 439L306 318H260L249 393Q214 406 190 406Q184 406 175 402T158 391Q138 375 127 329T115 211Q115 125 142 86T210 46L309 47V14Q261 1 206 -8Z" />
<glyph unicode="&#xe8;" glyph-name="egrave" horiz-adv-x="397" d="M135 -9T90 46T44 204Q44 253 51 294T71 359Q84 379 113 402T170 441T211 457Q262 457 294 439T345 373T363 240L115 218Q115 124 147 85T225 45L304 49L347 52V19Q312 9 268 0T207 -9Q135 -9
90 46ZM290 273Q289 340 270 375T207 410Q187 410 159 393Q141 381 130 343T117 253L290 273ZM110 611V631L147 668L277 549L259 526L110 611Z" />
<glyph unicode="&#xe9;" glyph-name="eacute" horiz-adv-x="397" d="M135 -9T90 46T44 204Q44 253 51 294T71 359Q84 379 113 402T170 441T211 457Q262 457 294 439T345 373T363 240L115 218Q115 124 147 85T225 45L304 49L347 52V19Q312 9 268 0T207 -9Q135 -9
90 46ZM290 273Q289 340 270 375T207 410Q187 410 159 393Q141 381 130 343T117 253L290 273ZM137 549L267 668L304 631V611L155 526L137 549Z" />
<glyph unicode="&#xea;" glyph-name="ecircumflex" horiz-adv-x="397" d="M135 -9T90 46T44 204Q44 253 51 294T71 359Q84 379 113 402T170 441T211 457Q262 457 294 439T345 373T363 240L115 218Q115 124 147 85T225 45L304 49L347 52V19Q312 9 268 0T207 -9Q135
-9 90 46ZM290 273Q289 340 270 375T207 410Q187 410 159 393Q141 381 130 343T117 253L290 273ZM85 538L177 667H233L325 538L303 519L209 607H201L107 519L85 538Z" />
<glyph unicode="&#xeb;" glyph-name="edieresis" horiz-adv-x="397" d="M135 -9T90 46T44 204Q44 253 51 294T71 359Q84 379 113 402T170 441T211 457Q262 457 294 439T345 373T363 240L115 218Q115 124 147 85T225 45L304 49L347 52V19Q312 9 268 0T207 -9Q135
-9 90 46ZM290 273Q289 340 270 375T207 410Q187 410 159 393Q141 381 130 343T117 253L290 273ZM97 627L156 632L169 614L163 536H104L97 627ZM241 627L300 632L314 614L307 536H248L241 627Z" />
<glyph unicode="&#xec;" glyph-name="igrave" horiz-adv-x="222" d="M104 -9T90 3T76 20V403L33 410V440Q102 454 111 454Q116 454 130 442T144 424V41L187 35V5Q118 -9 109 -9Q104 -9 90 3ZM9 611V631L46 668L176 549L158 526L9 611Z" />
<glyph unicode="&#xed;" glyph-name="iacute" horiz-adv-x="222" d="M104 -9T90 3T76 20V403L33 410V440Q102 454 111 454Q116 454 130 442T144 424V41L187 35V5Q118 -9 109 -9Q104 -9 90 3ZM36 549L166 668L203 631V611L54 526L36 549Z" />
<glyph unicode="&#xee;" glyph-name="icircumflex" horiz-adv-x="222" d="M104 -9T90 3T76 20V403L33 410V440Q102 454 111 454Q116 454 130 442T144 424V41L187 35V5Q118 -9 109 -9Q104 -9 90 3ZM-17 538L75 667H131L223 538L201 519L107 607H99L5 519L-17 538Z" />
<glyph unicode="&#xef;" glyph-name="idieresis" horiz-adv-x="222" d="M104 -9T90 3T76 20V403L33 410V440Q102 454 111 454Q116 454 130 442T144 424V41L187 35V5Q118 -9 109 -9Q104 -9 90 3ZM-5 627L54 632L67 614L61 536H2L-5 627ZM139 627L198 632L212 614L205
536H146L139 627Z" />
<glyph unicode="&#xf0;" glyph-name="eth" horiz-adv-x="417" d="M388 554L310 516Q362 439 362 296Q362 -9 180 -9Q165 -9 121 21T61 76Q42 124 42 202Q42 244 58 283T110 347T196 372Q202 372 232 359T289 332Q283 436 257 489L165 444L130 469L134 481L230
528Q194 564 126 567L112 606Q219 606 279 552L359 591L393 566L388 554ZM227 31T259 82T291 234Q291 276 290 295Q265 307 238 317T199 327Q160 327 137 287T113 185Q113 125 126 78T165 31Q227 31 259 82Z" />
<glyph unicode="&#xf1;" glyph-name="ntilde" horiz-adv-x="467" d="M101 -9T89 2T76 18V401L33 410V440Q106 454 115 454Q119 454 131 443T143 427L142 380Q240 454 245 454Q321 454 356 417T391 284V44L434 35V5Q360 -9 352 -9Q347 -9 335 2T323 18V289Q323
338 311 361T282 391T244 397Q232 397 144 343V44L187 35V5Q114 -9 105 -9Q101 -9 89 2ZM277 543T258 548T210 563Q177 576 165 576Q156 576 141 566T112 545L88 567Q142 630 165 630Q190 630 247 609Q253 607 271 601T299 595Q308 595 321 604T348 627L373 604Q359
585 334 564T295 543Q277 543 258 548Z" />
<glyph unicode="&#xf2;" glyph-name="ograve" horiz-adv-x="448" d="M142 -9T93 44T44 208Q44 254 51 295T71 359Q84 379 113 402T170 441T210 457Q305 457 354 403T404 244Q404 195 396 151T375 81Q358 58 307 25T238 -9Q142 -9 93 44ZM250 37T276 52T308 74Q333
132 333 236Q333 318 301 364T209 411Q185 411 159 393Q115 360 115 216Q115 124 148 81T240 36Q250 37 276 52ZM130 611V631L167 668L297 549L279 526L130 611Z" />
<glyph unicode="&#xf3;" glyph-name="oacute" horiz-adv-x="448" d="M142 -9T93 44T44 208Q44 254 51 295T71 359Q84 379 113 402T170 441T210 457Q305 457 354 403T404 244Q404 195 396 151T375 81Q358 58 307 25T238 -9Q142 -9 93 44ZM250 37T276 52T308 74Q333
132 333 236Q333 318 301 364T209 411Q185 411 159 393Q115 360 115 216Q115 124 148 81T240 36Q250 37 276 52ZM157 549L287 668L324 631V611L175 526L157 549Z" />
<glyph unicode="&#xf4;" glyph-name="ocircumflex" horiz-adv-x="448" d="M142 -9T93 44T44 208Q44 254 51 295T71 359Q84 379 113 402T170 441T210 457Q305 457 354 403T404 244Q404 195 396 151T375 81Q358 58 307 25T238 -9Q142 -9 93 44ZM250 37T276 52T308
74Q333 132 333 236Q333 318 301 364T209 411Q185 411 159 393Q115 360 115 216Q115 124 148 81T240 36Q250 37 276 52ZM105 538L197 667H253L345 538L323 519L229 607H221L127 519L105 538Z" />
<glyph unicode="&#xf5;" glyph-name="otilde" horiz-adv-x="448" d="M142 -9T93 44T44 208Q44 254 51 295T71 359Q84 379 113 402T170 441T210 457Q305 457 354 403T404 244Q404 195 396 151T375 81Q358 58 307 25T238 -9Q142 -9 93 44ZM250 37T276 52T308 74Q333
132 333 236Q333 318 301 364T209 411Q185 411 159 393Q115 360 115 216Q115 124 148 81T240 36Q250 37 276 52ZM272 543T253 548T205 563Q172 576 160 576Q151 576 136 566T107 545L83 567Q137 630 160 630Q185 630 242 609Q248 607 266 601T294 595Q303 595 316
604T343 627L368 604Q354 585 329 564T290 543Q272 543 253 548Z" />
<glyph unicode="&#xf6;" glyph-name="odieresis" horiz-adv-x="448" d="M142 -9T93 44T44 208Q44 254 51 295T71 359Q84 379 113 402T170 441T210 457Q305 457 354 403T404 244Q404 195 396 151T375 81Q358 58 307 25T238 -9Q142 -9 93 44ZM250 37T276 52T308
74Q333 132 333 236Q333 318 301 364T209 411Q185 411 159 393Q115 360 115 216Q115 124 148 81T240 36Q250 37 276 52ZM116 627L175 632L188 614L182 536H123L116 627ZM260 627L319 632L333 614L326 536H267L260 627Z" />
<glyph unicode="&#xf7;" glyph-name="divide" horiz-adv-x="624" d="M294 379T284 389T273 404L272 482Q286 486 302 488T326 491Q330 491 341 481T352 466L346 389Q306 379 299 379Q294 379 284 389ZM104 278H520V232H104V278ZM294 12T284 22T273 37L272 115Q286
119 302 121T326 124Q330 124 341 114T352 99L346 22Q306 12 299 12Q294 12 284 22Z" />
<glyph unicode="&#xf8;" glyph-name="oslash" horiz-adv-x="448" d="M404 367T404 244Q404 195 396 151T375 81Q358 58 307 25T238 -9Q180 -9 137 11L81 -90L68 -77L114 25Q44 77 44 208Q44 254 51 295T71 359Q84 379 113 402T170 441T210 457Q271 457 315 434L365
523L377 510L336 420Q404 367 404 244ZM115 133T143 88L243 307L286 382Q255 411 209 411Q185 411 159 393Q115 360 115 216Q115 133 143 88ZM333 132T333 236Q333 311 306 356L201 126L166 62Q195 36 240 36Q250 37 276 52T308 74Q333 132 333 236Z" />
<glyph unicode="&#xf9;" glyph-name="ugrave" horiz-adv-x="461" d="M169 -9T138 6T91 59T75 161V401L32 410V440Q105 454 113 454Q118 454 130 443T143 427V156Q143 107 155 83T183 53T221 47Q231 47 318 101V401L275 410V440Q348 454 357 454Q361 454 373 443T386
427V44L428 35V5Q356 -9 347 -9Q343 -9 331 2T319 18L320 65Q296 45 260 18T220 -9Q169 -9 138 6ZM125 611V631L162 668L292 549L274 526L125 611Z" />
<glyph unicode="&#xfa;" glyph-name="uacute" horiz-adv-x="461" d="M169 -9T138 6T91 59T75 161V401L32 410V440Q105 454 113 454Q118 454 130 443T143 427V156Q143 107 155 83T183 53T221 47Q231 47 318 101V401L275 410V440Q348 454 357 454Q361 454 373 443T386
427V44L428 35V5Q356 -9 347 -9Q343 -9 331 2T319 18L320 65Q296 45 260 18T220 -9Q169 -9 138 6ZM152 549L282 668L319 631V611L170 526L152 549Z" />
<glyph unicode="&#xfb;" glyph-name="ucircumflex" horiz-adv-x="461" d="M169 -9T138 6T91 59T75 161V401L32 410V440Q105 454 113 454Q118 454 130 443T143 427V156Q143 107 155 83T183 53T221 47Q231 47 318 101V401L275 410V440Q348 454 357 454Q361 454 373
443T386 427V44L428 35V5Q356 -9 347 -9Q343 -9 331 2T319 18L320 65Q296 45 260 18T220 -9Q169 -9 138 6ZM100 538L192 667H248L340 538L318 519L224 607H216L122 519L100 538Z" />
<glyph unicode="&#xfc;" glyph-name="udieresis" horiz-adv-x="461" d="M169 -9T138 6T91 59T75 161V401L32 410V440Q105 454 113 454Q118 454 130 443T143 427V156Q143 107 155 83T183 53T221 47Q231 47 318 101V401L275 410V440Q348 454 357 454Q361 454 373
443T386 427V44L428 35V5Q356 -9 347 -9Q343 -9 331 2T319 18L320 65Q296 45 260 18T220 -9Q169 -9 138 6ZM112 627L171 632L184 614L178 536H119L112 627ZM256 627L315 632L329 614L322 536H263L256 627Z" />
<glyph unicode="&#xfd;" glyph-name="yacute" horiz-adv-x="402" d="M160 -179T151 -165T142 -145L189 -3L170 -6Q168 -6 159 0L49 402L2 409V441Q71 453 80 453Q85 453 98 444T113 428L182 162L204 63H213L311 403L244 408V445L353 453Q357 453 367 441T376 424L240
-2L206 -126L252 -138L251 -167Q172 -179 163 -179Q160 -179 151 -165ZM132 549L262 668L299 631V611L150 526L132 549Z" />
<glyph unicode="&#xfe;" glyph-name="thorn" horiz-adv-x="445" d="M98 -179T86 -168T73 -152L77 12V590L33 599V628Q107 643 116 643Q120 643 132 632T144 616L143 380Q235 454 243 454Q315 454 358 398T401 245Q401 194 394 152T373 86Q360 67 332 45T276 7T237
-9Q215 -9 142 2V-123L188 -133V-165Q174 -168 146 -172T102 -179Q98 -179 86 -168ZM299 48T314 93T330 234Q330 319 303 358T241 398Q235 398 168 357L144 342L142 51Q148 50 188 42T252 34Q261 34 264 35Q299 48 314 93Z" />
<glyph unicode="&#xff;" glyph-name="ydieresis" horiz-adv-x="402" d="M160 -179T151 -165T142 -145L189 -3L170 -6Q168 -6 159 0L49 402L2 409V441Q71 453 80 453Q85 453 98 444T113 428L182 162L204 63H213L311 403L244 408V445L353 453Q357 453 367 441T376
424L240 -2L206 -126L252 -138L251 -167Q172 -179 163 -179Q160 -179 151 -165ZM92 627L151 632L164 614L158 536H99L92 627ZM236 627L295 632L309 614L302 536H243L236 627Z" />
<glyph unicode="&#x2013;" glyph-name="endash" horiz-adv-x="461" d="M44 269H418V225H44V269Z" />
<glyph unicode="&#x2014;" glyph-name="emdash" horiz-adv-x="835" d="M44 269H791V225H44V269Z" />
<glyph unicode="&#x2018;" glyph-name="quoteleft" horiz-adv-x="206" d="M70 417T62 426T54 439V487Q54 507 75 550T122 632L151 617Q120 542 113 520Q116 518 123 513T131 503L128 423Q92 417 74 417Q70 417 62 426Z" />
<glyph unicode="&#x2019;" glyph-name="quoteright" horiz-adv-x="206" d="M55 435L93 532Q92 533 84 539T75 549L77 629Q115 635 131 635Q135 635 143 627T152 614V565Q152 544 131 501T83 420L55 435Z" />
<glyph unicode="&#x201a;" glyph-name="quotesinglbase" horiz-adv-x="197" d="M54 -83Q77 -34 89 -2Q71 8 71 12L73 88Q107 92 125 92Q128 92 136 83T144 70V28Q144 13 125 -24T81 -97L54 -83Z" />
<glyph unicode="&#x201c;" glyph-name="quotedblleft" horiz-adv-x="330" d="M70 417T62 426T54 439V487Q54 507 75 550T122 632L151 617Q120 542 113 520Q116 518 123 513T131 503L128 423Q92 417 74 417Q70 417 62 426ZM195 417T187 425T178 439V487Q178 508
199 551T247 632L275 617L237 520Q238 519 246 513T255 503L253 423Q215 417 199 417Q195 417 187 425Z" />
<glyph unicode="&#x201d;" glyph-name="quotedblright" horiz-adv-x="330" d="M55 435L93 532Q92 533 84 539T75 549L77 629Q115 635 131 635Q135 635 143 627T152 614V565Q152 544 131 501T83 420L55 435ZM179 435Q210 510 217 532Q215 534 208 539T200 549L202
629Q238 635 256 635Q260 635 268 627T276 614V565Q276 545 255 502T208 420L179 435Z" />
<glyph unicode="&#x201e;" glyph-name="quotedblbase" horiz-adv-x="321" d="M54 -83Q77 -34 89 -2Q71 8 71 12L73 88Q107 92 125 92Q128 92 136 83T144 70V28Q144 13 125 -24T81 -97L54 -83ZM178 -83Q201 -34 213 -2Q195 8 195 12L197 88Q231 92 249 92Q252 92
260 83T268 70V28Q268 13 249 -24T205 -97L178 -83Z" />
<glyph unicode="&#x2022;" glyph-name="bullet" horiz-adv-x="360" d="M145 192T121 214T97 275Q97 313 121 335T180 358Q215 358 239 336T263 275Q263 237 239 215T180 192Q145 192 121 214Z" />
<glyph unicode="&#x2039;" glyph-name="guilsinglleft" horiz-adv-x="260" d="M39 220V249L176 407L201 388L108 238V230L199 74L173 54L39 220Z" />
<glyph unicode="&#x203a;" glyph-name="guilsinglright" horiz-adv-x="260" d="M61 74L152 230V238L59 388L84 407L221 249V220L86 54L61 74Z" />
</font>
</defs>
</svg>
